[Mini-HD] The Dictator (2012) จอมเผด็จการ [720p][Audio AC3 5.1:Tha+Eng][Sub:Tha+Eng][.MKV][3.15GB] - MovieX4 | ดูหนังออนไลน์ โหลดหนัง HD ฟรี
SUBTOTAL :
MINI HD
[Mini-HD] The Dictator (2012) จอมเผด็จการ [720p][Audio AC3 5.1:Tha+Eng][Sub:Tha+Eng][.MKV][3.15GB]

[Mini-HD] The Dictator (2012) จอมเผด็จการ [720p][Audio AC3 5.1:Tha+Eng][Sub:Tha+Eng][.MKV][3.15GB]

รายละเอียดย่อ:

รายละเอียดหนัง


The Dictator (2012) จอมเผด็จการ | 3.15GB
เรื่องย่อ
นายพลอลาดีน (ซาชา บารอน โคเฮน) ผู้ปกครองจอมเผด็จการฝั่งแอฟริกาเหนือ เขาเป็นผู้นำสาธารณรัฐวาดิยาที่ซึ่งเขาไม่ยอมให้ประชาธิปไตยมากล้ำกราย มันไม่มีวันเกิดขึ้นได้ตราบใดที่เขายังคงเป็นผู้นำอยู่ แต่เมื่อถูกเรียกตัวให้ไปเข้าร่วมการประชุมกับสหประชาชาติที่สหรัฐอเมริกา อลาดีนไม่รู้ว่าชีวิตและประเทศของเขาต้องกลับตาลปัตร อลาดีนถูกลักพาตัวและถูกโกนหนวดเคราจนไม่มีใครจำได้ไม่มีใครเชื่อว่าเขาคือผู้นำประเทศ เขาจึงกลายเป็นคนเร่ร่อนในถิ่นต่างแดนแต่อลาดีนได้รับความช่วยเหลือจาก โซอี (แอนนา ฟาริส) หญิงนักต่อสู้เคลื่อนไหวเพื่อสังคม เธอเสนองานและที่พักให้เขา ซึ่งเขาเองก็ไม่มีทางเลือกที่จะปฏิเสธเพราะเขาไม่ใช่นายพลอลาดีนคนเดิมที่ใครๆรู้จักอีกต่อไป แต่ในระหว่างที่อยู่อเมริกาอลาดีนพยายามสืบต้นตอว่าใครคือผู้อยู่เบื้องหลังแล้วเขาก็ค้นพบว่าคนนั้นคือทาเมีย (เบน คิงสลีย์) ลุงผู้ไม่น่าไว้ใจของเขานั่นเอง งานนี้อลาดีนต้องทำทุกวิถีทางเพื่อยึดอำนาจคืนมาจากลุงให้ได้

General
Unique ID                                : 174703123778516504246610871826621639701 (0x836E9905E6D8B25F928023D60E2BAC15)
Complete name                            : D:\moukung\Movie\M.H.DTT_fastest-Movie.blogspot.com.mkv
Format                                   : Matroska
Format version                           : Version 2
File size                                : 3.15 GiB
Duration                                 : 1h 23mn
Overall bit rate                         : 5 410 Kbps
Encoded date                             : UTC 2012-09-09 06:56:45
Writing application                      : mkvmerge v3.4.0 ('Rapunzel') built on May 15 2010 09:38:20
Writing library                          : libebml v0.8.0 + libmatroska v0.9.0

Video
ID                                       : 1
Format                                   : AVC
Format/Info                              : Advanced Video Codec
Format profile                           : Main@L4.1
Format settings, CABAC                   : Yes
Format settings, ReFrames                : 5 frames
Codec ID                                 : V_MPEG4/ISO/AVC
Duration                                 : 1h 23mn
Bit rate                                 : 3 153 Kbps
Nominal bit rate                         : 3 500 Kbps
Width                                    : 1 280 pixels
Height                                   : 544 pixels
Display aspect ratio                     : 2.35:1
Frame rate mode                          : Constant
Frame rate                               : 23.976 fps
Color space                              : YUV
Chroma subsampling                       : 4:2:0
Bit depth                                : 8 bits
Scan type                                : Progressive
Bits/(Pixel*Frame)                       : 0.189
Stream size                              : 1.83 GiB (58%)
Title                                    : Encode by softerman
Writing library                          : x264 core 65 r999kMod cc51047
Encoding settings                        : cabac=1 / ref=5 / deblock=1:0:0 / analyse=0x1:0x111 / me=dia / subme=7 / psy_rd=1.0:0.0 / mixed_ref=0 / me_range=16 / chroma_me=1 / trellis=2 / 8x8dct=0 / cqm=0 / deadzone=21,11 / chroma_qp_offset=-2 / threads=16 / thread_queue=16 / nr=0 / decimate=1 / mbaff=0 / bframes=5 / b_pyramid=0 / b_adapt=1 / b_bias=0 / direct=3 / wpredb=0 / keyint=250 / keyint_min=25 / scenecut=40(pre) / rc=abr / bitrate=3500 / ratetol=1.0 / qcomp=0.60 / qpmin=10 / qpmax=51 / qpstep=4 / ip_ratio=1.40 / pb_ratio=1.30 / aq=1:1.00
Language                                 : English
Default                                  : Yes
Forced                                   : No

Audio #1
ID                                       : 2
Format                                   : DTS
Format/Info                              : Digital Theater Systems
Codec ID                                 : A_DTS
Duration                                 : 1h 23mn
Bit rate mode                            : Constant
Bit rate                                 : 1 510 Kbps
Channel(s)                               : 6 channels
Channel positions                        : Front: L C R, Side: L R, LFE
Sampling rate                            : 48.0 KHz
Bit depth                                : 24 bits
Compression mode                         : Lossy
Stream size                              : 899 MiB (28%)
Title                                    : DTS
Language                                 : English
Default                                  : Yes
Forced                                   : No

Audio #2
ID                                       : 3
Format                                   : AC-3
Format/Info                              : Audio Coding 3
Mode extension                           : CM (complete main)
Format settings, Endianness              : Big
Codec ID                                 : A_AC3
Duration                                 : 1h 23mn
Bit rate mode                            : Constant
Bit rate                                 : 640 Kbps
Channel(s)                               : 6 channels
Channel positions                        : Front: L C R, Side: L R, LFE
Sampling rate                            : 48.0 KHz
Bit depth                                : 16 bits
Compression mode                         : Lossy
Stream size                              : 381 MiB (12%)
Title                                    : [THAI AC3 FROM BLU-RAY MASTER]
Language                                 : Thai
Default                                  : No
Forced                                   : No

Text #1
ID                                       : 4
Format                                   : VobSub
Muxing mode                              : zlib
Codec ID                                 : S_VOBSUB
Codec ID/Info                            : The same subtitle format used on DVDs
Title                                    : [SUB THAI 480P FROM BLU-RAY]
Language                                 : Thai
Default                                  : Yes
Forced                                   : No

Text #2
ID                                       : 5
Format                                   : VobSub
Muxing mode                              : zlib
Codec ID                                 : S_VOBSUB
Codec ID/Info                            : The same subtitle format used on DVDs
Title                                    : [SUB THAI 480P FROM BLU-RAY] UNDER
Language                                 : Thai
Default                                  : No
Forced                                   : No

Text #3
ID                                       : 6
Format                                   : VobSub
Muxing mode                              : zlib
Codec ID                                 : S_VOBSUB
Codec ID/Info                            : The same subtitle format used on DVDs
Title                                    : [SUB ENG 480P FROM BLU-RAY]
Language                                 : English
Default                                  : No
Forced                                   : No

Text #4
ID                                       : 7
Format                                   : VobSub
Muxing mode                              : zlib
Codec ID                                 : S_VOBSUB
Codec ID/Info                            : The same subtitle format used on DVDs
Title                                    : [SUB THAI 1080P FROM BLU-RAY]
Language                                 : Thai
Default                                  : No
Forced                                   : No





PART 200/ MB MKV
================================================
โหลดง่ายเร็วไม่ต้องพิมพ์ ตัวอักษร คลิ๊ก
================================================

PART 200/ MB MKV
PART/ 1.00 GB 
================================================
วิธีโหลด One2up ได้ทุกไฟล์ คลิ๊ก
================================================
================================================
 ** แบบแบ่ง Part 200MB โหลดแทนกันได้ **
 -- Winrar ใส่ Recovery Record 5% ทุกไฟล์ครับ คลิก --
================================================