[Super Mini-HD] Step Up 2 สเตปโดนใจ หัวใจโดนเธอ 2 [720p][Audio AC3 5.1:Tha][Sub:No][.AVI][1.35GB] - MovieX4 | ดูหนังออนไลน์ โหลดหนัง HD ฟรี
SUBTOTAL :
SUPER MINI HD
[Super Mini-HD] Step Up 2 สเตปโดนใจ หัวใจโดนเธอ 2 [720p][Audio AC3 5.1:Tha][Sub:No][.AVI][1.35GB]

[Super Mini-HD] Step Up 2 สเตปโดนใจ หัวใจโดนเธอ 2 [720p][Audio AC3 5.1:Tha][Sub:No][.AVI][1.35GB]

รายละเอียดย่อ:

รายละเอียดหนัง



Step Up 2 สเตปโดนใจ หัวใจโดนเธอ 2| 1.35GB
เรื่องย่อ
ในชีวิตของสาวน้อยนักเต้น แอนดี้ เวสต์ (บริอาน่า เอวิแกน) ไม่เคยได้อะไรมาง่าย ๆ ไม่เคยเลย นอกจากการเต้น หลังจากที่แม่ของเธอเสียชีวิต แอนดี้ก็ไปอยู่กับ ซาร่า (ซอนย่า ซอห์น) เพื่อนรักของแม่ แต่บ้านของซาร่าก็เป็นอีกที่หนึ่งที่เธอรู้สึกไม่เป็นตัวของตัวเอง สำหรับแอนดี้ ครอบครัวที่แท้จริงของเธอคือกลุ่มนักเต้น “410” และ ไทเลอร์ เกจ (แชนนิ่ง เททั่ม) เพื่อนบ้านที่คอยดูแลและปกป้องเธอตลอดมา
หลังจากโดดเรียนเป็นร้อยครั้งเพื่อไปซ้อมเต้นกับกลุ่ม 410 ซาร่าก็เหลืออดกับแอนดี้ และตั้งท่าจะส่งเธอไปอยู่กับป้าในเท็กซัส แต่โชคดีที่ไทเลอร์ยื่นมาเข้ามาช่วย โดยเกลี้ยกล่อมให้ซาร่าปล่อยให้แอนดี้อยู่ในบัลติมอร์ ถ้าแอนดี้ยอมเข้าเรียนในโรงเรียนสอนศิลปะแห่งแมรี่แลนด์ ซึ่งแอนดี้ไม่มีทางเลือกอื่น นอกจากยอมเข้าไปเรียน
เมื่อเข้าไปเรียนในโรงเรียนสอนศิลปะสุดไฮโซประจำรัฐ แอนดี้ก็ต้องดิ้นรนเพื่อปรับตัวเข้ากับสังคมใหม่ ขณะเดียวกันก็พยายามรักษาวิถีชีวิตเดิมไว้ แต่ไม่นานเธอก็วุ่นอยู่กับกิจกรรมของโรงเรียนใหม่ และพลาดนัดซ้อมกับ 410 หลายครั้ง จนถูกขับออกจากกลุ่ม แต่แอนดี้ไม่ยอมแพ้ เธอเข้าร่วมทีมเต้นของนักเต้นสุดฮอตประจำโรงเรียน เชส คอลลินส์ (โรเบิร์ท ฮอฟแมน) ที่ลงสมัครเข้าแข่งขันการเต้นใต้ดินของบัลติมอร์ที่เรียกว่า “เดอะสตรีทส์” ความรู้สึกดีๆก่อตัวขึ้นระหว่างแอนดี้และเชส สุดท้ายแอนดี้ก็ค้นพบหนทางในการมีชีวิตอยู่กับฝันของตัวเอง พร้อมๆกับสร้างสะพานเชื่อมสู่สังคมใหม่ที่เธอรู้สึกแปลกแยกในตอนแรก
General
Format                           : F4V
Codec ID                         : F4V
File size                        : 1.35 GiB
Duration                         : 1h 37mn
Overall bit rate                 : 1 976 Kbps
Encoded date                     : UTC 2011-06-22 01:05:51
Tagged date                      : UTC 2011-06-22 01:05:51
Writing library                  : AVS

Video
ID                               : 1
Format                           : AVC
Format/Info                      : Advanced Video Codec
Format profile                   : Main@L5.1
Format settings      ,       CABAC           : Yes
Format settings      ,       ReFrames        : 1 frame
Codec ID                         : avc1
Codec ID/Info                    : Advanced Video Coding
Duration                         : 1h 37mn
Bit rate mode                    : Variable
Bit rate                         : 1 592 Kbps
Width                            : 1 280 pixels
Height                           : 688 pixels
Display aspect ratio             : 1.860
Frame rate mode                  : Constant
Frame rate                       : 23.976 fps
Color space                      : YUV
Chroma subsampling               : 4:2:0
Bit depth                        : 8 bits
Scan type                        : Progressive
Bits/(Pixel*Frame)               : 0.075
Stream size                      : 1.09 GiB (81%)
Language                         : Thai
Encoded date                     : UTC 2011-06-22 01:05:51
Tagged date                      : UTC 2011-06-22 01:05:51

Audio
ID                               : 2
Format                           : AAC
Format/Info                      : Advanced Audio Codec
Format profile                   : LC
Codec ID                         : 40
Duration                         : 1h 37mn
Bit rate mode                    : Constant
Bit rate                         : 384 Kbps
Channel(s)                       : 6 channels
Channel positions                : Front: L C R      ,       Side: L R      ,       LFE
Sampling rate                    : 44.1 KHz
Compression mode                 : Lossy
Stream size                      : 265 MiB (19%)
Language                         : Thai
Encoded date                     : UTC 2011-06-22 01:05:51
Tagged date                      : UTC 2011-06-22 01:05:51



 PART 200/ MB AVI
================================================
PART/ 1.00 GB 
================================================
================================================
 -- Winrar ใส่ Recovery Record 5% ทุกไฟล์ครับ คลิก --
================================================