[Super Mini-HD] Tactical Force (2012) หน่วยฝึกหัดภารกิจเดนตาย [720p][Audio AC3 5.1:Th+En][Sub:Th+En][.AVI][1.30GB] - MovieX4 | ดูหนังออนไลน์ โหลดหนัง HD ฟรี
SUBTOTAL :
SUPER MINI HD
[Super Mini-HD] Tactical Force (2012) หน่วยฝึกหัดภารกิจเดนตาย [720p][Audio AC3 5.1:Th+En][Sub:Th+En][.AVI][1.30GB]

[Super Mini-HD] Tactical Force (2012) หน่วยฝึกหัดภารกิจเดนตาย [720p][Audio AC3 5.1:Th+En][Sub:Th+En][.AVI][1.30GB]

รายละเอียดย่อ:

รายละเอียดหนัง



Tactical Force (2012) หน่วยฝึกหัดภารกิจเดนตาย | 1.30GB
เรื่องย่อ
หน่วยสวาทรุ่นฝึกหัดกลุ่มหนึ่งต้องเจอกับงานภาคสนามของจริง เมื่อพวกเขาตกอยู่ท่ามกลางสงครามห้ำหั่นระหว่าง 2 แก๊งค์คู่ปรับ พวกเขาติดอยู่ในโกดังเก็บเครื่องบินที่ทิ้งร้าง และ.ไม่มีอาวุธอะไรติดตัวเลย
General
Complete name                            : SMHv2 Tactical Force (2011) 720p.SS Th+En.avi
Format                                   : Matroska
Format version                           : Version 2
File size                                : 1.30 GiB
Duration                                 : 1h 28mn
Overall bit rate                         : 2 113 Kbps
Movie name                               : White Vengeance (2011) - Zer0 @ EPiK
Encoded date                             : UTC 2012-06-07 17:06:41
Writing application                      : mkvmerge v4.8.0 ( I Got The... ) built on May 24 2011 03:12:58
Writing library                          : libebml v1.2.0 + libmatroska v1.1.0

Video
ID                                       : 1
Format                                   : AVC
Format/Info                              : Advanced Video Codec
Format profile                           : Main@L5.1
Format settings  ,   CABAC                   : Yes
Format settings  ,   ReFrames                : 1 frame
Codec ID                                 : V_MPEG4/ISO/AVC
Duration                                 : 1h 28mn
Bit rate                                 : 1 559 Kbps
Width                                    : 1 280 pixels
Height                                   : 720 pixels
Display aspect ratio                     : 16:9
Frame rate                               : 23.976 fps
Color space                              : YUV
Chroma subsampling                       : 4:2:0
Bit depth                                : 8 bits
Scan type                                : Progressive
Bits/(Pixel*Frame)                       : 0.071
Stream size                              : 985 MiB (74%)
Title                                    : SMHv2 Tactical Force (2011) 720p.SS Th+En.avi
Language                                 : English
Default                                  : Yes
Forced                                   : No

Audio #1
ID                                       : 2
Format                                   : AC-3
Format/Info                              : Audio Coding 3
Mode extension                           : CM (complete main)
Format settings  ,   Endianness              : Big
Codec ID                                 : A_AC3
Duration                                 : 1h 28mn
Bit rate mode                            : Constant
Bit rate                                 : 256 Kbps
Channel(s)                               : 6 channels
Channel positions                        : Front: L C R  ,   Side: L R  ,   LFE
Sampling rate                            : 48.0 KHz
Bit depth                                : 16 bits
Compression mode                         : Lossy
Stream size                              : 162 MiB (12%)
Title                                    : AC3 5.1 256k Tha - DVD Master
Language                                 : Thai
Default                                  : Yes
Forced                                   : No

Audio #2
ID                                       : 3
Format                                   : AC-3
Format/Info                              : Audio Coding 3
Mode extension                           : CM (complete main)
Format settings  ,   Endianness              : Big
Codec ID                                 : A_AC3
Duration                                 : 1h 28mn
Bit rate mode                            : Constant
Bit rate                                 : 256 Kbps
Channel(s)                               : 6 channels
Channel positions                        : Front: L C R  ,   Side: L R  ,   LFE
Sampling rate                            : 48.0 KHz
Bit depth                                : 16 bits
Compression mode                         : Lossy
Stream size                              : 162 MiB (12%)
Title                                    : AC3 5.1 256k Eng - DTS
Language                                 : English
Default                                  : No
Forced                                   : No

Text #1
ID                                       : 4
Format                                   : VobSub
Codec ID                                 : S_VOBSUB
Codec ID/Info                            : The same subtitle format used on DVDs
Title                                    : [SUB THAI 480P FROM DVD MASTER]
Language                                 : Thai
Default                                  : No
Forced                                   : No

Text #2
ID                                       : 5
Format                                   : VobSub
Codec ID                                 : S_VOBSUB
Codec ID/Info                            : The same subtitle format used on DVDs
Title                                    : [SUB THAI 1080P FROM DVD MASTER]
Language                                 : Thai
Default                                  : No
Forced                                   : No

Text #3
ID                                       : 6
Format                                   : UTF-8
Codec ID                                 : S_TEXT/UTF8
Codec ID/Info                            : UTF-8 Plain Text
Title                                    : Sub Eng SRT
Language                                 : English
Default                                  : No
Forced                                   : No



PART 200/ MB AVI
================================================
================================================
 ** แบบแบ่ง Part 200MB โหลดแทนกันได้ **
 -- Winrar ใส่ Recovery Record 5% ทุกไฟล์ครับ คลิก --
================================================