[Super Mini-HD] John Carter (2012) นักรบสงครามข้ามจักรวาล [720p][Audio AC3 2.1:Th+En][Sub:Th+En][.AVI][1.71GB] - MovieX4 | ดูหนังออนไลน์ โหลดหนัง HD ฟรี
SUBTOTAL :
SUPER MINI HD
[Super Mini-HD] John Carter (2012) นักรบสงครามข้ามจักรวาล  [720p][Audio AC3 2.1:Th+En][Sub:Th+En][.AVI][1.71GB]

[Super Mini-HD] John Carter (2012) นักรบสงครามข้ามจักรวาล [720p][Audio AC3 2.1:Th+En][Sub:Th+En][.AVI][1.71GB]

รายละเอียดย่อ:

รายละเอียดหนัง



John Carter (2012) นักรบสงครามข้ามจักรวาล | 1.74GB
เรื่องย่อ
จอห์น คาร์เตอร์ อดีตนายทหารยศร้อยเอกผู้เบื่อหน่ายสงคราม ที่ถูกส่งตัวไปยังดาวบาร์ซูม (ดาวอังคาร) อันลึกลับ โดยหาสาเหตุไม่ได้ และเข้าไปอยู่ท่ามกลางกระแสความขัดแย้งครั้งใหญ่ของผู้ที่อาศัยอยู่บนดาวดวงนั้น รวมถึง “ทาร์ส ทาร์กาส” และ “เจ้าหญิง เดจาห์ ธอริส” ผู้เลอโฉม เขาจะทำอย่างไรเมื่อมหาสงครามแห่งดวงดาวกำลังจะอุบัติ ในโลกที่พร้อมจะล่มสลายได้เพียงพริบตา ความอยู่รอดของดาวดวงนี้และผู้คนทั้งหลายขึ้นอยู่กับเขาเพียงคนเดียว!...
General
Complete name                            : SMH John Carter (2012) 720p.So Th 2.0.avi
Format                                   : Matroska
Format version                           : Version 2
File size                                : 1.71 GiB
Duration                                 : 2h 12mn
Overall bit rate                         : 1 849 Kbps
Movie name                               : Dragon.Age.Dawn.Of.The.Seeker.2012.720p.BluRay.AC3.x264-CtrlHD
Encoded date                             : UTC 2012-06-06 18:25:48
Writing application                      : mkvmerge v4.8.0 ( I Got The... ) built on May 24 2011 03:12:58
Writing library                          : libebml v1.2.0 + libmatroska v1.1.0

Video
ID                                       : 1
Format                                   : AVC
Format/Info                              : Advanced Video Codec
Format profile                           : Main@L5.1
Format settings  ,   CABAC                   : Yes
Format settings  ,   ReFrames                : 1 frame
Codec ID                                 : V_MPEG4/ISO/AVC
Duration                                 : 2h 12mn
Bit rate                                 : 1 556 Kbps
Width                                    : 1 280 pixels
Height                                   : 536 pixels
Display aspect ratio                     : 2.40:1
Frame rate                               : 23.976 fps
Color space                              : YUV
Chroma subsampling                       : 4:2:0
Bit depth                                : 8 bits
Scan type                                : Progressive
Bits/(Pixel*Frame)                       : 0.095
Stream size                              : 1.44 GiB (84%)
Title                                    : SMH John Carter (2012) 720p.So Th 2.0.avi
Language                                 : English
Default                                  : Yes
Forced                                   : No

Audio
ID                                       : 2
Format                                   : AC-3
Format/Info                              : Audio Coding 3
Mode extension                           : CM (complete main)
Format settings  ,   Endianness              : Big
Codec ID                                 : A_AC3
Duration                                 : 2h 12mn
Bit rate mode                            : Constant
Bit rate                                 : 256 Kbps
Channel(s)                               : 2 channels
Channel positions                        : Front: L R
Sampling rate                            : 48.0 KHz
Bit depth                                : 16 bits
Compression mode                         : Lossy
Stream size                              : 242 MiB (14%)
Title                                    : AC3 2.0 Tha - DVD Master
Language                                 : Thai
Default                                  : Yes
Forced                                   : No



PART 200/ MB AVI
================================================ 
PART 200/ MB AVI
================================================
================================================
 ** แบบแบ่ง Part 200MB โหลดแทนกันได้ **
 -- Winrar ใส่ Recovery Record 5% ทุกไฟล์ครับ คลิก --
================================================