[Super Mini-HD] Prey (2011) ป่าล่าพราน [DVD Rip][Audio AC3 5.1:Th+En][Sub:Th+En][1.28GB] - MovieX4 | ดูหนังออนไลน์ โหลดหนัง HD ฟรี
SUBTOTAL :
SUPER MINI HD
[Super Mini-HD] Prey (2011) ป่าล่าพราน [DVD Rip][Audio AC3 5.1:Th+En][Sub:Th+En][1.28GB]

[Super Mini-HD] Prey (2011) ป่าล่าพราน [DVD Rip][Audio AC3 5.1:Th+En][Sub:Th+En][1.28GB]

รายละเอียดย่อ:

รายละเอียดหนัง



Prey (2011) ป่าล่าพราน | 1.28GB
เรื่องย่อ
ยามค่ำคืนในฟาร์มแห่งหนึ่ง ฝูงกวางพุ่งตัวกระแทกรั้วไฟฟ้าแรงสูงโดยไม่ทราบสาเหตุ ชาวไร่กับครอบครัวซึ่งแวะมาเยือนพบบาดแผลฉีกกัดขนาดลึก จึงตัดสินใจเดินเข้าไปในป่าเพื่อค้นหาสาเหตุ ทุกคนมีอาวุธเพียบพร้อมแต่ต่างต้องตกตะลึงกับสภาพแวดล้อมที่เจอ เหมือนมีพลังร้ายบุกเข้ามาทำลายล้างป่า ขณะที่ดวงอาทิตย์เริ่มคล้อยต่ำ ทุกคนได้ยินเสียงคำรามแผดสะท้อนไปทั่งทิศ พรานป่าได้กลับกลายเป็นเหยื่อ ภาพยนตร์สยองขวัญแห่งยุคปัจจุบันแนวเดียวกันกับ The Descent Jaws กับ Deliverance เรื่องราวของธรรมชาติมนุษย์ซึ่งโหดเหี้ยมยิ่งกว่าป่าดงพงไพร
General
Complete name                            : DR Prey (2011) SD.So Th+Fre Sb Th+En.avi
Format                                   : Matroska
Format version                           : Version 2
File size                                : 1.28 GiB
Duration                                 : 1h 19mn
Overall bit rate                         : 2 297 Kbps
Encoded date                             : UTC 2012-05-11 12:26:24
Writing application                      : mkvmerge v4.8.0 ( I Got The... ) built on May 24 2011 03:12:58
Writing library                          : libebml v1.2.0 + libmatroska v1.1.0

Video
ID                                       : 1
Format                                   : AVC
Format/Info                              : Advanced Video Codec
Format profile                           : Main@L5.1
Format settings  ,   CABAC                   : Yes
Format settings  ,   ReFrames                : 1 frame
Codec ID                                 : V_MPEG4/ISO/AVC
Duration                                 : 1h 19mn
Bit rate                                 : 1 740 Kbps
Width                                    : 720 pixels
Height                                   : 302 pixels
Display aspect ratio                     : 2.40:1
Frame rate                               : 29.970 fps
Color space                              : YUV
Chroma subsampling                       : 4:2:0
Bit depth                                : 8 bits
Scan type                                : Progressive
Bits/(Pixel*Frame)                       : 0.267
Stream size                              : 993 MiB (76%)
Title                                    : DR Prey (2011) SD.So Th+Fre Sb Th+En.avi
Language                                 : French
Default                                  : Yes
Forced                                   : No

Audio #1
ID                                       : 2
Format                                   : AC-3
Format/Info                              : Audio Coding 3
Mode extension                           : CM (complete main)
Format settings  ,   Endianness              : Big
Codec ID                                 : A_AC3
Duration                                 : 1h 19mn
Bit rate mode                            : Constant
Bit rate                                 : 256 Kbps
Channel(s)                               : 6 channels
Channel positions                        : Front: L C R  ,   Side: L R  ,   LFE
Sampling rate                            : 44.1 KHz
Bit depth                                : 16 bits
Compression mode                         : Lossy
Stream size                              : 146 MiB (11%)
Title                                    : AC3 5.1 256k Tha - DVD Master
Language                                 : Thai
Default                                  : Yes
Forced                                   : No

Audio #2
ID                                       : 3
Format                                   : AC-3
Format/Info                              : Audio Coding 3
Mode extension                           : CM (complete main)
Format settings  ,   Endianness              : Big
Codec ID                                 : A_AC3
Duration                                 : 1h 19mn
Bit rate mode                            : Constant
Bit rate                                 : 256 Kbps
Channel(s)                               : 6 channels
Channel positions                        : Front: L C R  ,   Side: L R  ,   LFE
Sampling rate                            : 44.1 KHz
Bit depth                                : 16 bits
Compression mode                         : Lossy
Stream size                              : 146 MiB (11%)
Title                                    : AC3 5.1 256k French - DVD Master
Language                                 : French
Default                                  : No
Forced                                   : No

Text #1
ID                                       : 4
Format                                   : VobSub
Codec ID                                 : S_VOBSUB
Codec ID/Info                            : The same subtitle format used on DVDs
Title                                    : Sub Tha DVD Master
Language                                 : Thai
Default                                  : No
Forced                                   : No

Text #2
ID                                       : 5
Format                                   : VobSub
Codec ID                                 : S_VOBSUB
Codec ID/Info                            : The same subtitle format used on DVDs
Title                                    : Sub Eng DVD Master
Language                                 : English
Default                                  : No
Forced                                   : No



PART/ 200 MB AVI
================================================
 ================================================
 -- Winrar ใส่ Recovery Record 5% ทุกไฟล์ครับ คลิก --
 ================================================